The Fate of the Furious 2017 movie torrent

IMDb:

general

(Duration): 2h 6mn

(File size): Gib

audio

(Format): AC-3 – 3 Audio Coding

(Codec): AC3

video

(Format): MPEG-4 Visual –

(Media): Video / MP4V-ES

(Format): XviD

(Resolution): 720×304 px

(Shape factor): 1

(Frame Rate): fps

(Click to view larger)

Information will be updated soon !!!

Help us in donating to Bitcoin: 1MbtePmWNM13SEkQgmxF6RSvfaXugF7rpz

Defeat the mysterious woman in the cathedral in the world of terrorism and betray those closestKanyaay is a preliminary analysis team, they try as before. House and Letty are now on honeymoon and Brian and Mia have been withdrawn from the game – and the rest of the team is fired – a world tour that the team found the guise of normal life. But when mysterious woman domination seduced into the world of crime that she can not seem to escape and betray those closest to him, they will stand trial, silatulad in court. Off the coast of Cuba and the streets of New York in the icy plains of derArcticThe Barents Sea, the force of the elite will cross the globe to keep the anarchist, to liberate the desolation of the world and the people made with the family home.

IMDB:

Seed / Leech STATISTICS

COVER

NFO

Screen shots

Note – watermark video real free

(Click to view larger)

Fortune Rage2017 TC 720p HD x264AAC

Plots: –

When mysterious woman domination seduced into the world of terrorism and betrayed the closest team to him is testing, they never try before.

Directed by: F. GaryGrau

Screenplay: Chris Morgan, Gary Scott Thompson

Stars: Vin Diesel, Jason Statham, Dwayne Johnson

Genre – Action, Adventure, Mystery

Screenshots – Click on EnalRge

Format: Matroska

File size: MiB

Time: 2 hours 8 min

Total Bitrate: 1590 kb / s

video

ID: 1

Format: AVC

Format / Info: Advanced Video Codec

Format Profile:

Format Settings, CABAC: Yes

Format settings, reframes: 4 frames

Codec ID: V_MPEG4 / ISO / AVC

Time: 2 hours 8 min

Bitrate: 1280 kb / s

Width:1280 pixels

Height: 560 pixels

Aspect ratio :: 1

Frame rate: Fixed

Frame Rate: FPS

Color space: YUV

Chrominance sub sampling 4: 2: 0

Depth bit: 8 bits

Scan Type: Progressive

Bits / (Pixel * Frame):

Stream size: MiB (80%)

Title: -Sharmi-

Writing Library: Core x264 142 r249124e4fed

default: yes

Strength: None

audio

ID: 2

Format: AAC

Format / Info: Advanced Audio Codec

Format Profile: LC

Codec ID: A_AAC

Time: 2 hours 8 min

bitrate:318 kb / s

Channel (E): 2 channels

Channel positions: front: LR

Sampling kHz

Frame Rate: FPS (1024 SPF)

Compressed: lossy

Stream size: 291 MiB (20%)

Title: -Sharmi-

English

Default: Yes

Strength: None

The Fate of the Furious 2017

  • The Fate of the Furious 2017 480p kat dare bear full movie download torrent
  • The Fate of the Furious 2017 Movie Download Torrent
  • The Fate of the Furious 2017 avi torrent townload

Rating 49 3

Nascemos da necessidade da integração entre o corpo, mente e emoção, através das diversas terapias holísticas existentes.